#TITLE:Alone;
#SUBTITLE:Naruto;
#ARTIST:Electric Concerto;
#TITLETRANSLIT:;
#SUBTITLETRANSLIT:;
#ARTISTTRANSLIT:;
#CREDIT:;
#BANNER:;
#BACKGROUND:;
#LYRICSPATH:;
#CDTITLE:;
#MUSIC:AR-Naruto-Alone.mp3;
#OFFSET:-0.020;
#SAMPLESTART:100.000;
#SAMPLELENGTH:11.960;
#SELECTABLE:YES;
#BPMS:0.000=140.000;
#STOPS:;
#BGCHANGES:0.000=Naruto=1.000=0=0=1,
99999=-nosongbg-=1.000=0=0=0 // don't automatically add -songbackground-
;
// cache tags:
#FIRSTBEAT:0.000;
#LASTBEAT:552.000;
#SONGFILENAME:Songs/My Creations/AR-Naruto-Alone/AR-Naruto-Alone.sm;
#HASMUSIC:1;
#HASBANNER:0;
#MUSICLENGTH:211.362;
// end cache tags

//---------------dance-single - ----------------
#NOTES:
     dance-single:
     :
     Beginner:
     1:
     0.400,0.548,0.028,0.237,0.038,536.000,6.000,50.000,0.000,0.000:
1000
1000
1000
0000
1000
1000
0000
1000
,
1000
1000
1000
1000
,
1000
1000
1000
0000
1000
1000
1000
0000
,
1000
1000
1000
0000
1000
1000
1000
0000
,
1000
1000
1000
0001
1000
1000
1000
0000
,
1000
1000
1000
0000
1000
1000
1000
0010
,
1001
1000
1000
0000
1000
1000
1000
0000
,
1000
1000
1000
0000
1000
1000
1000
0000
,
1000
1000
1000
0001
1000
1000
1000
0000
,
1000
1000
1000
0000
1000
1000
1000
0001
,
1000
0000
1000
0000
1000
0000
1000
0001
,
1000
0000
1000
0000
1000
0000
1000
0001
,
1000
0000
1000
0000
1000
0000
1000
0001
,
1000
1000
1000
1000
,
2001
0000
3000
1000
0200
0000
0300
0100
,
0020
0000
0030
0010
0002
0000
0003
0001
,
0020
0000
0030
0010
0200
0000
0300
0100
,
2000
0000
3000
1000
0200
0000
0300
0100
,
2000
0000
3000
1000
0200
0000
0300
0100
,
0020
0000
0030
0010
0002
0000
0003
0001
,
0020
0000
0030
0010
0200
0000
0300
0100
,
2000
3200
0320
0032
,
1003
1000
1000
0000
1000
1000
1000
0000
,
1000
1000
1000
0000
1000
1000
1000
0001
,
1000
1000
1000
0000
1000
1000
1000
0000
,
1000
1000
1000
0000
1000
1000
1000
0001
,
1000
1000
1000
0000
1000
1000
1000
0000
,
1000
1000
1000
0000
1000
1000
1000
0001
,
1000
1000
1000
0000
1000
1000
1000
0000
,
1000
1000
1000
0000
1000
0000
1000
0001
,
1001
0000
1000
0000
0000
0020
0000
0000
,
0030
0100
0100
0001
,
0010
0000
0001
0000
0000
0200
0000
0000
,
0300
0010
0010
0001
,
0010
0000
0000
0010
0000
0000
0010
0000
,
0000
0020
0000
0030
,
0002
0000
0003
0000
,
0002
0000
0003
0000
,
1000
0100
0010
0000
1000
1000
1000
0000
,
1000
1000
1000
0000
1000
0000
1000
0000
,
0200
0000
0300
0000
,
2000
0000
3000
0000
,
0020
0000
0030
0000
,
0100
0100
0010
0010
,
0200
0300
0200
0300
,
1000
0000
1000
0000
1000
0100
0000
0000
,
1000
0100
0010
0000
1000
1000
1000
0000
,
1000
1000
1000
0000
1000
0000
1000
0000
,
2000
0000
3200
0000
,
2300
0000
3200
0000
,
1300
0000
1000
0000
,
1000
1000
1000
0100
,
2000
0000
0000
0000
,
0000
0000
3000
0000
,
1000
0100
0010
1000
0100
0010
0100
0000
,
1000
1000
1000
0000
1000
0000
1000
0000
,
1000
1000
1000
0000
0100
0000
0010
1000
,
1000
0000
1000
0000
1000
0000
1000
1000
,
1000
0000
1000
0000
1000
1000
1000
0000
,
1000
0000
1000
0000
1000
0100
1000
0000
,
1000
1000
1000
0000
1000
0000
1000
0000
,
1000
1000
1000
0000
1000
0000
1000
0000
,
1000
0100
0010
0100
1000
0100
1000
0100
,
1000
1000
1000
0000
1000
0000
1000
0000
,
0200
0000
0000
0300
0200
0000
0000
0300
,
2000
0000
0000
3000
0200
0000
0000
0300
,
2000
3200
0320
0032
,
1003
0100
0010
0100
,
1000
1000
1000
0000
1000
0000
1000
1000
,
1000
1000
1000
0000
1000
0000
1000
0000
,
1000
0100
0010
0001
0000
0000
0002
0000
0000
0000
0000
0000
,
0003
0000
0000
0000
0001
0000
0001
0010
,
0100
0000
1000
0000
,
1000
0000
1000
0000
,
1000
0000
1000
0100
0000
0000
1000
0100
,
0010
0000
1000
0000
,
2000
0000
3000
0000
0000
0000
1000
0100
,
0020
0000
0030
0000
,
1000
0000
0000
1000
0000
0000
1000
0000
0100
0000
0010
0000
0001
0000
0010
0000
0000
0000
0001
0000
0000
0001
0000
0000
,
1000
0000
0000
1000
0000
0000
1000
0000
0100
0000
0010
0000
0001
0000
0010
0000
0000
0000
0001
0000
0000
0001
0000
0000
,
1000
0000
0000
1000
0000
0000
1000
0000
0100
0000
0010
0000
0001
0000
0010
0000
0000
0000
0001
0000
0000
0001
0000
0000
,
1000
0000
0000
1000
0000
0000
1000
0000
0100
0000
0010
0000
0001
0000
0010
0000
0000
0000
0001
0000
0000
0001
0000
0000
,
1000
0000
0000
1000
0000
0000
1000
0000
0100
0000
0010
0000
1000
0000
0000
0000
0000
0000
0100
0000
0000
0000
0000
0000
,
1000
0100
1000
0100
,
1000
0000
0010
0000
1000
0100
1000
0000
,
1000
0100
1000
0100
1000
0000
1000
0000
,
1001
1000
0100
2000
,
0000
3000
0000
0000
1000
0000
0000
1000
,
1000
1000
1000
0000
1000
1000
1000
0000
,
1000
1000
1000
0000
1000
1000
1000
0001
,
1000
1000
1000
2000
,
0000
3000
0000
0000
1000
0000
1000
0000
,
2000
0000
0000
3000
1000
1000
1000
0000
,
1000
0000
0000
1000
1000
1000
1000
0000
,
1000
1000
1000
2000
,
0000
3000
0000
0000
1000
0000
0000
1000
,
1000
0000
0000
0000
1000
1000
1000
0000
,
1000
1000
1000
0000
1000
1000
1000
0001
,
1000
1000
1000
1000
,
0000
0000
1000
0000
,
1000
0000
0000
0000
1000
1000
1000
0000
,
1000
1000
1000
0000
1000
1000
1000
0000
,
1000
1000
1000
0100
,
1000
1000
1000
0001
1000
1000
1000
0000
,
1000
1000
1000
1000
,
1000
1000
1000
0001
1000
1000
1000
0000
,
1000
1000
1000
1000
,
0000
0000
1000
1000
,
1000
0000
0000
0001
1000
1000
1000
0000
,
1000
0000
0000
0001
1000
1000
1000
0000
,
1000
1000
1000
1000
,
0000
0000
1000
0000
,
2000
0000
3000
0001
1000
1000
1000
0000
,
1000
1000
1000
0000
1000
1000
1000
0000
,
1000
1000
1000
1000
,
0000
0000
1000
0000
,
1000
1000
1000
0001
1000
1000
1000
0000
,
1000
1000
1000
0001
1000
1000
1000
0000
,
1000
1000
1000
1000
,
0000
0000
0000
0000
1000
0000
0000
1000
,
2000
0000
0000
0000
,
3000
0000
0000
0000
0000
0000
0000
0110
,
1001
0000
0000
0000
;

//---------------dance-single - Copied from----------------
#NOTES:
     dance-single:
     Copied from:
     Medium:
     1:
     0.393,0.462,0.095,0.237,0.000,512.000,20.000,50.000,0.000,0.000:
0100
1000
0100
0000
1000
0100
0000
0010
,
1001
0100
0001
1000
,
1001
0100
0010
0000
1000
0100
0010
0000
,
0001
0010
0100
0000
0001
0010
0100
0000
,
1000
0100
0010
1000
1000
0100
0010
0000
,
0100
0010
0100
0000
0010
0100
0010
0001
,
1001
0100
0010
0000
0001
0010
0100
0000
,
1000
0100
0010
0000
0001
0010
0100
0000
,
0010
0010
0100
0001
0100
0100
0010
0000
,
0010
0010
0100
0000
0001
0010
0010
0001
,
1000
0000
0100
0000
0010
0000
0100
0100
,
1000
0000
0100
0000
0001
0000
0100
0100
,
0010
0000
0001
0000
0100
0000
1000
0100
,
0001
0000
0100
0000
0010
0000
1000
0100
,
1001
1001
0200
0300
,
0020
0030
0002
0003
,
0020
0030
0200
0300
,
2000
3000
0200
0300
,
2000
3000
0200
0300
,
0020
0030
0002
0003
,
0020
0030
0200
0300
,
2000
3200
0320
0032
,
1003
0100
0010
0000
1000
0100
0010
0000
,
0001
0010
0100
0000
0010
0100
1000
0001
,
1000
0100
0010
0000
1000
0100
0010
0000
,
0001
0010
0100
0000
0010
0100
1000
0001
,
0010
0100
1000
0000
0001
0010
0100
0000
,
0010
0100
1000
0000
0001
0010
0100
0001
,
1000
0100
0010
0000
0100
0010
0001
0000
,
1000
0100
0010
0000
0100
0000
1000
0001
,
0101
0000
1000
0000
0000
0020
0000
0000
,
0030
0100
0100
1000
,
0010
0000
0002
0000
0003
0200
0000
0000
,
0300
1000
0010
0001
,
0100
0000
0000
0010
0000
0000
0001
0000
,
0000
0020
0000
0030
,
0002
0000
0003
0000
,
0002
0000
0003
0000
,
1000
0100
0010
0000
1000
1000
1000
0000
,
0001
0001
0001
0000
1000
0000
1000
0000
,
0220
0000
0330
0000
,
2000
0000
3000
0000
,
0022
0000
0033
0000
,
1000
0100
0010
0001
,
0200
0000
0000
0300
,
1000
0000
0100
0000
1000
0100
0000
0000
,
1000
0100
0010
0000
1000
1000
1000
0000
,
0001
0001
0001
0000
1000
0000
1000
0000
,
2000
0000
0000
3000
1200
0000
0000
0300
,
2100
0000
0000
3000
1200
0000
0000
0300
,
1100
0000
0001
0000
,
0010
1000
0100
0100
,
2000
0000
0000
0000
,
0000
0000
0000
0000
3000
1000
0000
0000
,
1000
0100
0010
1000
0100
0010
0100
0000
,
1000
1000
1000
0000
0001
0000
0001
0000
,
0001
0001
0001
0000
0100
0000
0010
1000
,
0100
0000
1000
0000
0100
0000
0001
0001
,
0001
0000
0010
0000
0100
0100
0100
0000
,
1000
0000
0100
0000
0010
0100
0010
0000
,
0001
0010
0100
0000
1000
0000
1000
0000
,
1000
0100
0001
0000
0001
0000
0001
0000
,
1000
0100
0010
0100
1000
0100
1000
0100
,
0001
0001
0001
0000
0010
0000
0010
0000
,
0200
0000
0000
0300
0200
0000
0000
0300
,
2000
0000
0000
3000
0200
0000
0000
0300
,
2000
0000
3000
0000
1000
1000
1000
1000
,
1000
0001
0010
0100
,
0010
0100
1000
0000
0010
0000
0001
0010
,
0100
1000
1000
0000
0010
0000
0100
0000
,
1000
0001
0002
0000
,
0003
0000
0000
0000
1000
0000
0001
0010
,
0100
0000
0010
0000
,
0100
0000
1000
0000
,
0100
0000
1000
0100
0000
0000
1100
0010
,
0001
0000
1100
0000
,
2000
0000
3000
0000
0000
0000
1100
0100
,
0020
0000
0030
0000
,
1000
0100
1000
0000
0010
0000
0001
0001
,
0100
1000
0100
0000
0010
0000
0100
0100
,
0001
0001
0001
0000
0010
0000
0100
0100
,
1000
1000
1000
0000
0100
0000
0010
0010
,
0001
0100
1000
0000
1000
0000
0100
0000
,
0010
0100
0001
0010
,
1000
0000
0010
0000
0001
0100
0001
0000
,
1000
0100
1000
0100
0001
0000
0001
0000
,
1001
0100
0100
0020
,
0000
0030
0000
0000
1000
0000
0000
0001
,
0010
0100
1000
0000
0010
0100
1000
0000
,
0001
0001
0001
0000
0010
0010
0010
0100
,
0100
1000
1000
0200
,
0000
0300
0000
0000
0001
0000
0010
0000
,
0002
0000
0000
0003
1000
0100
0010
0000
,
0100
0000
0000
0010
0010
1000
1000
0000
,
0100
1000
0001
0200
,
0000
0300
0000
0000
0010
0000
0000
0100
,
1000
0000
0000
0000
0010
0100
1000
0000
,
0001
0010
0100
0000
1000
0100
0010
0001
,
1000
0100
0010
0001
,
0000
0000
0010
0000
,
1000
0000
0000
0000
1000
1000
1000
0000
,
0001
0001
0001
0000
1000
1000
1000
0000
,
0001
0001
0010
0100
,
0010
0010
0010
0001
0100
0100
0100
0000
,
1000
0001
1000
0001
,
0100
0010
1000
0001
0010
0100
0001
0000
,
0100
1000
0100
0001
,
0000
0000
0010
0010
,
0001
0000
0000
0001
0100
0100
0100
0000
,
1000
0000
0000
0001
0010
0010
0010
0000
,
1000
0010
0100
0002
,
0003
0000
1000
0000
,
2000
0000
3000
0001
1000
0010
0100
0000
,
0001
0010
1000
0000
1000
0100
1000
0000
,
0001
1000
0001
2000
,
3000
0000
1000
0000
,
0010
0010
0010
0001
0100
0100
0100
0000
,
1000
1000
1000
0001
0100
0100
0100
0000
,
1000
1001
1001
1000
,
0000
0000
0000
0000
0001
0000
0000
0100
,
2000
0000
0000
0000
,
3000
0000
0001
0000
0001
0000
0001
0110
,
1001
0000
0000
0000
;

//---------------dance-single - Copied from Copied f----------------
#NOTES:
     dance-single:
     Copied from Copied f:
     Easy:
     1:
     0.245,0.289,0.057,0.071,0.000,335.000,12.000,15.000,0.000,0.000:  // measure 1
1000
0000
1000
1000
,  // measure 2
0100
0100
0010
0010
,  // measure 3
1000
0000
0010
0010
,  // measure 4
0001
0001
0001
1000
,  // measure 5
1000
0010
0010
0010
,  // measure 6
0100
0100
0010
0010
,  // measure 7
1001
0010
0010
1000
,  // measure 8
1000
0010
0001
0001
,  // measure 9
0010
0100
0100
0010
,  // measure 10
0010
0100
0001
0010
,  // measure 11
1000
1000
0010
0010
,  // measure 12
1000
0100
0100
0100
,  // measure 13
0001
0001
0100
0100
,  // measure 14
0001
0001
0010
1000
,  // measure 15
0100
0100
0200
0000
,  // measure 16
0000
0000
0000
0300
0002
0000
0000
0000
,  // measure 17
0000
0000
0000
0003
0200
0000
0000
0000
,  // measure 18
0000
0300
0200
0000
,  // measure 19
0000
0300
0200
0000
,  // measure 20
0000
0300
0002
0000
,  // measure 21
0000
0000
0003
0000
0200
0000
0000
0300
,  // measure 22
2000
0000
3020
0000
,  // measure 23
0030
0000
0000
0000
1000
0100
0010
0000
,  // measure 24
0010
0000
1000
0010
,  // measure 25
0000
0000
0000
0000
1000
0100
0010
0000
,  // measure 26
0010
0000
1000
0010
,  // measure 27
0000
0000
0000
0000
1000
0100
0010
0000
,  // measure 28
0010
0000
0001
0100
,  // measure 29
0000
0000
0000
0000
1000
0100
0010
0000
,  // measure 30
0010
0000
0100
1000
,  // measure 31
0100
0000
1000
0000
0000
1000
0000
0000
,  // measure 32
0000
0100
0100
0100
,  // measure 33
0010
0000
0001
0000
0000
0100
0000
0000
,  // measure 34
0000
1000
1000
0100
,  // measure 35
0100
0000
0000
0010
0000
0000
0001
0000
,  // measure 36
0000
0100
0000
0000
,  // measure 37
0001
0000
0000
0000
,  // measure 38
0001
0000
0000
0000
,  // measure 39
1000
0100
0010
0000
0000
0000
0000
0000
,  // measure 40
0000
0000
1000
1000
,  // measure 41
0110
0000
0000
0000
,  // measure 42
1010
0000
0000
0000
,  // measure 43
0101
0000
0000
0000
,  // measure 44
1000
1000
0001
0001
,  // measure 45
1010
0000
0000
0000
,  // measure 46
1000
0000
1000
0000
,  // measure 47
1000
0100
0020
0000
0000
0000
0000
0030
,  // measure 48
0000
0000
1000
1000
,  // measure 49
1010
0000
0000
0000
,  // measure 50
0101
0000
0000
0000
,  // measure 51
1010
0000
0000
0000
,  // measure 52
0010
1000
0100
0100
,  // measure 53
2000
0000
0000
0000
,  // measure 54
3000
0000
0000
0000
,  // measure 55
1000
0100
0010
0000
0100
0000
0100
0000
,  // measure 56
0100
0100
0001
0001
,  // measure 57
0010
0100
0100
0010
,  // measure 58
0100
1000
0100
0001
,  // measure 59
0001
0010
0100
1000
,  // measure 60
1000
0100
0010
0001
,  // measure 61
0001
0000
1000
1000
,  // measure 62
1000
0000
0010
0010
,  // measure 63
1000
0100
0010
0000
1000
0000
1000
0000
,  // measure 64
0100
0000
0010
0010
,  // measure 65
0200
0000
0300
0000
,  // measure 66
2000
0000
3000
0000
,  // measure 67
0200
0000
0300
0000
,  // measure 68
0001
0001
0010
0100
,  // measure 69
0010
0000
0000
0000
,  // measure 70
0100
0100
0010
0010
,  // measure 71
0110
0000
0002
0000
,  // measure 72
0003
0000
0000
0000
0001
0000
0001
0010
,  // measure 73
0100
0000
0010
0000
,  // measure 74
0100
0000
0010
0000
,  // measure 75
0100
0000
1000
1000
0000
0000
0100
0100
,  // measure 76
0100
0000
0100
0000
,  // measure 77
1000
0000
0000
0000
0000
0000
1000
0100
,  // measure 78
0010
0000
0000
0000
,  // measure 79
1000
0000
0001
0001
,  // measure 80
0100
0000
1000
1000
,  // measure 81
0001
0001
0010
0010
,  // measure 82
1000
1000
0010
0010
,  // measure 83
0001
1000
1000
0100
,  // measure 84
0100
0100
0001
0001
,  // measure 85
1000
1000
0001
0001
,  // measure 86
1000
1000
0010
0010
,  // measure 87
0011
0100
0100
1000
,  // measure 88
0000
0000
0000
0000
1000
0000
0000
0001
,  // measure 89
0010
0000
0000
0000
,  // measure 90
0001
0001
0010
0010
,  // measure 91
0100
0010
0010
0100
,  // measure 92
0000
0000
0010
0010
,  // measure 93
0001
0000
1000
0010
,  // measure 94
0010
0000
0010
0000
,  // measure 95
1000
1000
0001
0100
,  // measure 96
0000
0000
0010
0000
,  // measure 97
1000
0000
0010
0000
,  // measure 98
0001
0000
1000
0000
,  // measure 99
1000
0100
0010
0001
,  // measure 100
0000
0000
0010
0000
,  // measure 101
1000
0000
1000
1000
,  // measure 102
0001
0001
1000
1000
,  // measure 103
0001
0001
0010
0100
,  // measure 104
0000
0001
0000
0000
,  // measure 105
1000
0001
0100
0010
,  // measure 106
1000
1000
0001
0001
,  // measure 107
0100
0100
0100
0001
,  // measure 108
0000
0000
0100
0010
,  // measure 109
0001
0000
0100
0100
,  // measure 110
1000
0000
0010
0010
,  // measure 111
1000
0010
0100
1000
,  // measure 112
0000
0000
1000
0000
,  // measure 113
1000
0000
1000
0100
,  // measure 114
0001
0100
0100
0100
,  // measure 115
0001
1000
0001
1000
,  // measure 116
0000
0000
1000
0000
,  // measure 117
0010
0000
0000
1000
,  // measure 118
1000
1000
0100
0100
,  // measure 119
1001
0100
0100
0100
,  // measure 120
0000
0000
0001
0000
,  // measure 121
1000
0000
0000
0000
,  // measure 122
0000
0000
0001
0000
,  // measure 123
1001
0000
0000
0000
;

//---------------dance-single - Copied from----------------
#NOTES:
     dance-single:
     Copied from:
     Hard:
     1:
     0.508,0.577,0.497,0.322,0.038,578.000,105.000,68.000,0.000,5.000:
0010
0100
1000
0000
0010
0100
0000
0001
,
0001
1100
0010
1100
,
0100
0010
1000
0000
0100
0001
0010
0000
,
0010
0100
0001
0000
1000
0010
0100
0000
,
1000
0100
0001
0001
0100
0100
0010
0000
,
0001
0100
1000
0000
0100
1000
0001
0010
,
1001
0100
1000
0000
0001
0010
1000
0000
,
0010
0001
0100
0000
0010
1000
1000
0000
,
0010
0100
0100
0001
0100
0010
0010
0000
,
0001
0010
0001
0000
0100
0100
0100
0001
,
0010
0000
0001
0000
0100
0000
1010
0001
,
0100
0000
1010
0000
0100
0000
0011
0001
,
0100
0000
1000
0000
1000
0000
0110
0001
,
0100
0001
0010
1000
,
2001
0000
3000
1000
0200
0000
0300
0100
,
0020
0000
0030
0010
0002
0000
0003
0001
,
0020
0000
0030
0010
0200
0000
0300
0100
,
2000
0000
3000
1000
0200
0000
0300
0100
,
2000
0000
3000
1000
0200
0000
0300
0100
,
0020
0000
0030
0010
0002
0000
0003
0001
,
0020
0000
0030
0010
0200
0000
0300
0100
,
2001
3201
0321
0032
,
0103
1000
0010
0000
1000
0010
0100
0000
,
1000
0010
0001
0000
0100
0010
1000
0001
,
0100
1000
0001
0000
0010
0010
1000
0000
,
0010
1000
0001
0000
0100
1000
0001
0001
,
0100
1000
0010
0000
0100
0010
0100
0000
,
0010
0001
0100
0000
0001
0100
1000
0001
,
0100
1000
0010
0000
0001
0010
0100
0000
,
0100
0010
0001
0000
0110
0000
1000
1001
,
1001
0000
1001
0000
0000
0020
0000
0000
,
0030
0100
1100
0001
,
1010
0000
0002
0000
0003
2200
0000
0000
,
3300
0110
0010
1001
,
0010
0000
0000
0110
0000
0000
0110
0000
,
0000
0000
0020
0000
0000
0000
0030
0010
,
0002
0000
0000
0000
0003
0001
0000
0000
,
0002
0000
0000
0000
0003
0001
0000
0000
,
0001
0100
0010
0000
0010
0100
0001
0000
,
1000
0100
0001
0000
1001
0000
1010
0000
,
0200
0000
0000
0000
0300
0100
0000
0000
,
2020
0000
0000
0000
3030
1010
0000
0000
,
0020
0000
0000
0000
0030
0010
0000
0000
,
1000
0100
1000
0010
,
2200
3300
0220
0330
,
1100
0000
0001
0000
1010
0100
0000
0000
,
0001
0100
0010
0000
0100
1000
1000
0000
,
0001
1010
1000
0000
1010
0000
1001
0000
,
2000
0001
0000
0000
3200
0001
0000
0000
,
2300
0001
0000
0000
3200
0001
0000
0000
,
1300
0000
1100
0000
,
0010
0011
1100
0110
,
2000
0100
0000
0000
0010
0000
0010
0000
,
0010
0000
3010
0001
,
1010
0100
0001
1000
0010
0010
0100
0000
,
0100
1000
0010
0000
1100
0000
0011
0000
,
0100
0010
1000
0000
0100
0000
0110
1001
,
1001
0000
1010
0000
1100
0000
0010
0001
,
1000
0000
1100
0000
1100
0010
1000
0000
,
0010
0000
0100
0000
0001
0100
0010
0000
,
0010
0001
0010
0000
0100
0000
0010
0000
,
1000
0100
0001
0000
1010
0000
1010
0000
,
1001
0100
0010
0001
0100
0010
1000
0100
,
1000
0100
0010
0000
1001
0000
1100
0000
,
0200
0000
0001
0300
0200
0000
0001
0300
,
2000
0000
0010
3000
0200
0000
0001
0300
,
2000
3201
1320
0132
,
1003
1000
0100
0100
0010
0010
0100
0100
,
1000
0010
0100
0000
0010
0000
0001
0010
,
0100
1000
1000
0000
0100
0000
0001
0000
,
1000
0100
0010
0001
0000
0000
2002
0000
0000
0000
0000
0000
,
3003
0000
0000
0000
1001
0000
1001
0010
,
0100
0000
0000
0000
0010
0010
0000
0000
,
1000
1000
0000
0000
0001
0001
0000
0000
,
1000
1000
1000
0110
0000
0000
0001
0100
,
0010
0000
0000
0000
1100
1100
0000
0000
,
2002
0000
3003
0000
0000
0000
1000
0101
,
2020
0000
3030
0000
,
1000
0000
0000
1000
0000
0000
1000
0000
0100
0000
0010
0000
0001
0000
0010
0000
0000
0000
0001
0000
0000
0001
0000
0000
,
1000
0000
0000
1000
0000
0000
1000
0000
0100
0000
0010
0000
0001
0000
0010
0000
0000
0000
0001
0000
0000
0001
0000
0000
,
1000
0000
0000
1000
0000
0000
1000
0000
0100
0000
0010
0000
0001
0000
0010
0000
0000
0000
0001
0000
0000
0001
0000
0000
,
1000
0000
0000
1000
0000
0000
1000
0000
0100
0000
0010
0000
0001
0000
0010
0000
0000
0000
0001
0000
0000
0001
0000
0000
,
1000
0000
0000
1000
0000
0000
1000
0000
0100
0000
0010
0000
1000
0000
0000
0000
0000
0000
0010
0000
0000
0000
0000
0000
,
1000
0001
0010
1000
,
0001
0000
0110
0000
0001
0100
0001
0000
,
0010
1000
0010
0100
1000
0000
0001
0000
,
0101
1000
0110
2002
,
0000
3003
0110
0000
1100
0000
0000
0010
,
0100
1000
1000
0000
0010
0100
1000
0000
,
0001
0010
0100
0000
0010
0100
1000
0001
,
0010
0100
0001
2002
,
0000
3003
0000
0000
1100
0000
1001
0000
,
2020
0000
0000
3030
1100
1001
1010
0000
,
1000
0000
0000
0001
0010
0100
1000
0000
,
0100
0001
0010
2200
,
0000
3300
0000
0000
0010
0000
0000
0100
,
1000
0000
0000
0000
0010
0001
0100
0000
,
1000
0001
0010
0000
0100
1000
0001
0100
,
1000
0100
1000
0001
,
0000
0000
0000
0000
1001
1001
0000
0000
,
1001
1001
0000
0000
1000
0010
1000
0000
,
1000
0001
0100
0000
0010
0001
0100
0000
,
1000
0100
1000
0100
1000
0000
0011
0000
,
0100
0010
1000
0001
0010
0100
1000
0000
,
1100
1010
0101
1010
,
1100
1000
0100
0001
1000
0010
0010
0000
,
1100
0101
0110
1010
,
0000
0000
0000
0010
1000
0010
1000
0010
,
1000
0000
0000
0001
0010
0100
1000
0000
,
1000
0000
0000
0001
0100
0010
0001
0000
,
1100
0001
1010
0200
,
0000
0300
0100
0000
1000
0000
0000
0000
,
2200
0000
3300
0001
0010
0100
0001
0000
,
0100
1000
0010
0000
0001
0100
1000
0000
,
1100
0010
0101
2000
,
0000
3000
0000
0000
2000
0000
3000
0000
,
0100
0010
1000
0001
0100
0010
1000
0000
,
0010
0100
1000
0001
1000
1000
0010
0000
,
1100
1010
1001
2020
,
0000
3030
0000
0000
1100
0000
0000
0010
,
2000
0010
0010
0010
,
3000
0000
0000
0000
1001
0000
0000
0110
,
1001
0000
0000
0000
;

//---------------dance-single - Copied from Copied f----------------
#NOTES:
     dance-single:
     Copied from Copied f:
     Challenge:
     1:
     0.744,0.837,1.000,0.378,0.062,699.000,321.000,80.000,113.000,6.000:
0110
0101
1010
0000
1010
0110
0000
0101
,
1001
0110
0010
1010
,
0110
0011
1100
0000
1000
0001
0110
0000
,
0010
1100
0001
0000
0110
0010
0100
0000
,
1100
0101
0011
0001
1100
0100
0100
0000
,
0001
0110
0100
0000
0110
1100
0001
0110
,
1001
0100
1100
0000
0001
0110
1010
0000
,
0110
0011
0100
0000
1000
0100
0101
0000
,
0010
1010
1100
0001
0100
0110
0010
0000
,
0101
1010
0001
0000
1100
1100
0110
0001
,
0100
0000
0011
0011
0100
0100
1010
0010
,
0100
0100
1010
1000
0100
0100
0011
0001
,
1100
1100
1010
1010
0100
0000
1010
1001
,
0100
0100
0001
0001
0010
0010
1000
1000
,
2021
0000
3030
1010
0202
0000
0303
0110
,
2020
0000
3030
0011
2002
0000
3003
0101
,
2020
0000
3030
0011
0220
0000
0330
0110
,
2020
0000
3030
1001
2200
0000
3300
0101
,
2200
0000
3300
1001
0202
0000
0303
0110
,
2020
0000
3030
0110
0202
0000
0303
0101
,
2020
0000
3030
0110
0202
0000
0303
0110
,
1MM1
MMMM
M1M1
MMMM
MM11
MMMM
MMM1
0000
,
0100
1100
0001
0000
1000
0011
0100
0000
,
0100
1010
0001
0000
1000
0011
0100
1001
,
0100
1100
1000
0000
0001
0110
1000
0000
,
1010
1000
0101
0000
0110
1100
0001
0001
,
0110
1000
1010
0000
0100
0011
1000
0000
,
0010
0001
1100
0000
0101
0110
1000
1000
,
0100
1100
0010
0010
0001
0011
0100
0100
,
0100
0110
0001
0000
0110
0110
0100
1000
,
1010
0000
0101
0000
0000
2M2M
0000
0M0M
,
3030
0000
M1MM
MMMM
11MM
0000
0101
0000
,
1010
0000
0202
0000
0303
2200
0000
0000
,
3300
0000
1010
1010
0010
0010
1001
1001
,
0010
0010
0000
1M1M
1MM1
MMMM
MM1M
0000
,
0000
0000
0020
0000
1000
0100
0130
0010
,
0002
0000
0100
0100
0013
0001
0000
0000
,
0002
0000
0010
0100
0103
0001
0000
0000
,
0101
0100
0110
0000
0010
1100
0001
0000
,
1100
0110
0101
0000
1100
0000
0010
0100
,
0200
0000
0010
0010
0301
0100
0000
0000
,
2000
0000
0001
0010
3100
1000
0000
0000
,
0020
0000
0100
1000
0031
0010
0000
0000
,
1010
0000
0100
0100
1000
1000
0010
0000
,
2200
3000
1300
0000
0220
0030
0310
0000
,
1001
0000
0011
0000
1010
0110
0000
0000
,
1001
1010
0010
0000
0110
1100
1000
0000
,
0011
1010
1100
0000
1000
0000
1001
0000
,
2010
0001
0010
0000
3201
0001
0001
0000
,
2301
0001
0010
0000
3201
0001
0010
0000
,
1300
1000
0001
0001
1100
0110
0000
0000
,
0010
0010
0011
0011
1100
1100
0110
0110
,
2000
0100
0100
0001
0010
0001
0010
0100
,
0010
0100
0001
0010
3010
0000
0101
0000
,
1000
0110
0011
1100
0010
0011
0100
0000
,
0110
0101
0010
0000
1010
0000
0010
0000
,
0110
0110
1100
0000
0101
0000
0110
0101
,
1001
1001
1010
1010
1100
1100
0010
0001
,
1000
1000
1100
1100
1100
1010
1000
1000
,
0011
0000
1010
0000
0001
0100
1010
0000
,
1010
0101
1010
0000
0100
0000
0011
0000
,
1000
1100
0001
0000
0101
0000
1010
0000
,
0001
0101
0010
0001
0100
0011
1000
M100
,
1M00
01M0
0010
000M
1001
0000
1100
0000
,
0210
0010
0001
0310
0210
0010
0001
0310
,
2000
0000
0010
3010
0210
0000
0001
0301
,
2001
0000
3201
1000
0320
0100
0032
0010
,
1103
1001
0101
0100
0010
0011
1100
0101
,
1100
0010
0101
0000
1010
0000
0001
0011
,
0110
1100
1001
0000
0100
0100
0001
0001
,
1000
0100
0010
2001
0000
0000
0002
0000
0000
0000
0000
0000
,
3003
1001
0000
M00M
1001
M00M
10M1
0M10
,
0100
0000
0000
00M0
1010
0110
00M0
M000
,
1001
1010
M000
000M
0101
1001
000M
0000
,
100M
M001
100M
0110
0000
0000
0011
0100
,
1010
0000
0000
0000
11MM
1MM1
0000
0000
,
2002
0000
3003
1001
0000
0000
1100
0101
,
2020
0000
3030
0000
,
0010
0000
0000
0100
0000
0000
1000
0000
0100
0000
0100
0000
1000
0000
0010
0000
0000
0000
0100
0000
0000
0010
0000
0000
,
0010
0000
0000
0001
0000
0000
0100
0000
0100
0000
0010
0000
0001
0000
1000
0000
0000
0000
0100
0000
0000
0001
0000
0000
,
0010
0000
0000
0100
0000
0000
1000
0000
0100
0000
0001
0000
0001
0000
0001
0000
0000
0000
0101
0000
0000
0010
0000
0000
,
0100
0000
0000
1000
0000
0000
0100
0000
0100
0000
1000
0000
0010
0000
1000
0000
0000
0000
0100
0000
0000
0010
0000
0000
,
0001
0000
0000
0001
0000
0000
0010
0000
0100
0000
0010
0000
1000
0000
0100
0000
0000
0000
0010
0000
0000
1000
0000
0000
,
1000
0000
0000
0100
0000
0000
0001
0000
0100
0000
1000
0000
0010
0000
1000
0000
0000
0000
1000
0000
0000
0100
0000
0000
,
0001
0000
0000
1000
0000
0000
0100
0000
1000
0000
0100
0000
0001
0000
1000
0000
0000
0000
1000
0000
0000
0100
0000
0000
,
0010
0000
0000
1000
0000
0000
0010
0000
0010
0000
0100
0000
1000
0000
0100
0000
0000
0000
0001
0000
0000
0100
0000
0000
,
0101
0000
1100
0000
0110
1001
2002
0000
,
0000
3003
0101
0000
1100
0000
0000
0001
,
0110
1000
0100
0000
0001
1100
0010
0000
,
0001
0110
1000
0000
0001
1100
0010
1000
,
0110
0000
0100
0000
1001
1001
2002
0000
,
0000
3003
0000
0000
1100
0110
1001
0000
,
2020
0000
0000
3030
1100
1010
0010
0000
,
1100
0000
000M
00M1
0M10
M100
1000
0M00
,
0110
0101
1010
2200
,
0000
3300
0100
0000
0110
0000
0100
0101
,
0010
0000
0000
0000
1010
0101
0110
0000
,
110M
00M1
0010
0M00
M100
100M
0001
0110
,
1010
0101
1100
0101
,
0001
0000
0001
0000
1001
1001
1010
0000
,
1001
1001
0101
0000
1000
0110
0101
0000
,
1100
0101
0100
0000
1010
0101
0100
0000
,
1000
0001
1000
0100
0001
0000
0011
0000
,
1100
0110
1000
0100
0001
0010
1000
0000
,
1000
1000
1010
0101
0101
0101
1010
0010
,
1100
1000
0010
0001
1000
0010
0100
0000
,
11MM
M1M1
M11M
1M1M
,
0000
0000
MMMM
MMM1
1MMM
MM1M
MMM1
M1MM
,
1MMM
0000
0000
0001
0100
0010
1000
0000
,
0100
0000
0000
1000
0001
0010
0100
0000
,
1100
1100
0011
0000
1010
0000
0202
0000
,
0000
0300
0100
0000
1003
1001
0000
0000
,
2200
0000
3300
0001
1000
0100
1001
0000
,
0100
1010
0010
0000
1000
0110
0010
0000
,
0101
0110
0101
2020
,
0000
3000
1000
1000
2000
0000
3030
0000
,
1100
0110
1000
0011
0100
1010
1100
00M0
,
0M10
M100
100M
M001
1100
1100
0110
0000
,
1100
0000
0011
0000
0101
0000
1020
1000
,
1000
1030
0000
0000
1010
1010
1000
0010
,
2000
0000
0010
0100
0010
0010
0010
3001
,
0000
0000
0000
1010
1001
1010
0000
0110
,
0001
0000
0000
0000
;
